#TITLE:Bemera;
#SUBTITLE:;
#ARTIST:Yahpp;
#TITLETRANSLIT:;
#SUBTITLETRANSLIT:;
#ARTISTTRANSLIT:;
#CREDIT:;
#BANNER:;
#BACKGROUND:;
#LYRICSPATH:;
#CDTITLE:;
#MUSIC:Bemera - Yahpp.mp3;
#OFFSET:-0.420;
#SAMPLESTART:99.940;
#SAMPLELENGTH:12.000;
#SELECTABLE:YES;
#BPMS:0.000=210.001,8.000=105.001,8.250=210.001,8.750=105.001,9.000=210.001,9.500=105.001,9.750=210.001,10.250=105.001,10.500=210.001,15.000=105.001,15.250=210.001,15.750=105.001,16.000=210.001,16.500=105.001,16.750=210.001,17.250=105.001,17.500=210.001,52.000=420.002,52.500=210.001,56.250=420.002,56.750=210.001,59.500=420.002,60.000=210.001,64.000=105.001,64.250=210.001,64.750=105.001,65.000=210.001,68.250=420.002,68.750=210.001,72.500=420.002,73.000=210.001,75.750=420.002,76.250=210.001,80.250=105.001,80.500=210.001,81.000=105.001,81.250=210.001,94.500=105.001,94.750=210.001,95.250=105.001,95.500=210.001,96.000=105.001,96.250=210.001,96.750=105.001,97.000=210.001,97.500=105.001,97.750=210.001,98.250=105.001,98.500=210.001,99.000=105.001,99.250=210.001,99.750=105.001,100.000=210.001,124.500=105.001,124.750=210.001,125.250=105.001,125.500=210.001,126.000=105.001,126.250=210.001,126.750=105.001,127.000=210.001,303.500=105.001,309.000=210.001,446.000=105.001,446.250=210.001,446.750=105.001,447.000=210.001,447.500=105.001,447.750=210.001,448.250=105.001,448.500=210.001,482.000=105.001,482.250=210.001,482.750=105.001,483.000=210.001,489.500=105.001,489.750=210.001,490.250=105.001,490.500=210.001,533.000=105.001,533.250=210.001,533.750=105.001,534.000=210.001,537.500=105.001,542.500=210.001;
#STOPS:;
#BGCHANGES:;
// cache tags:
#FIRSTBEAT:4.000;
#LASTBEAT:542.500;
#SONGFILENAME:Songs/nhac/Bemera - Yahpp/Bemera - Yahpp.sm;
#HASMUSIC:1;
#HASBANNER:0;
#MUSICLENGTH:161.492;
// end cache tags

//---------------dance-single - ----------------
#NOTES:
     dance-single:
     :
     Hard:
     22:
     1.000,1.000,1.000,0.557,1.000,1264.000,165.000,90.000,0.000,90.000:
0000
0000
0000
0000
,
2000
0000
0000
0000
0000
0000
0000
0000
0000
0000
0000
0000
0011
0100
0011
0100
,
3011
0000
0000
1100
0000
0000
0110
0000
0000
1100
0000
0000
0002
0000
0000
0000
,
0000
0000
0000
0000
0000
0000
0000
0000
1100
0010
1100
0010
1103
0000
0000
0011
,
0000
0000
0110
0000
0000
0011
0000
0000
1000
0100
1000
0100
0001
0010
0001
0010
,
1000
0100
1000
0100
0001
0010
0001
0010
1000
0001
1000
0001
0100
0010
0100
0010
,
1000
0001
1000
0001
0100
0010
0100
0010
1000
0100
0010
0001
0010
0100
1000
0100
,
0010
0001
0010
0100
1000
0100
0010
0001
0010
0100
1000
0100
0010
0001
0010
0100
,
1000
0100
0010
0001
0010
0100
1000
0100
0010
0001
0010
0001
1000
0100
1000
0100
,
0001
1000
0001
1000
0010
0100
0010
0100
0001
0100
0001
0100
0010
1000
0010
1000
,
0010
0100
0010
0100
0001
1000
0001
1000
0010
0001
0010
0001
1000
0010
1000
0010
,
0100
1000
0100
1000
0001
0100
0001
0100
0010
1000
0010
1000
0001
0100
0001
0100
,
0001
1000
0001
1000
0010
0100
0010
0100
0001
0000
0010
0000
0100
0000
1000
0000
,
0200
0000
0000
0000
0000
1010
0000
0300
0000
0001
0000
0010
0000
0100
0000
1000
,
0000
0200
0000
0000
0000
0000
1010
0000
0300
0000
0001
0000
0010
0000
0200
0000
,
0000
0000
0000
1000
0000
1300
0000
0100
0000
0010
0000
0001
0000
0000
0000
1100
,
0001
0000
1100
0001
0000
1000
0001
0010
0100
1000
0000
0100
0000
0010
0000
0001
,
0000
0020
0000
0000
0000
0000
0101
0000
0030
0000
1000
0000
0100
0000
0010
0000
,
0001
0000
0020
0000
0000
0000
0000
0101
0000
0030
0000
1000
0000
0100
0000
0020
,
0000
0000
0001
0031
0010
0100
1000
0000
,
0011
1000
0000
0011
1000
0000
0001
1000
0100
0010
0001
1000
0001
1000
0001
0010
,
0001
0010
1000
0100
1000
0100
1000
0001
1000
0001
0100
0010
0100
0010
1000
0010
,
1000
0010
0100
0001
0100
0001
0100
0010
0100
0010
1000
0001
1000
0001
0100
0010
,
0100
0010
1000
0010
1000
0010
0100
0010
0100
0010
1000
0000
0001
1100
0000
0010
,
1100
0000
0010
1100
0000
0100
0011
0000
1000
0011
0000
0100
0011
0000
0010
1001
,
0000
0001
2000
0000
0000
0000
0000
0000
0000
0000
3002
0000
0000
0000
0200
0000
,
0000
2000
0000
0003
0000
0300
0000
3000
,
0001
0010
0100
1000
0100
0010
0001
0010
,
0100
2000
0000
0002
0000
0000
0000
3000
,
0000
0103
0010
0001
0010
0100
1000
0100
,
0010
0002
0000
2000
0000
0000
0000
0003
,
0000
0000
3111
0000
0000
1110
0000
0000
0111
0000
0000
1110
0000
0000
1000
0000
,
0100
0001
0010
1000
0100
0001
0010
2000
,
0000
0000
0010
0002
0000
3000
0100
2000
,
0000
0003
0000
0000
0000
3200
0000
2000
,
0000
0000
0000
0002
0000
0000
0000
3323
,
0000
0000
0000
0000
0000
0002
0000
2030
,
0000
0000
0000
0020
0000
0000
0000
3233
,
0000
0000
0000
0000
0000
1000
0010
0301
,
0010
1000
0010
0001
1000
0100
0001
2000
,
0000
0000
0000
0000
0010
3001
0010
0001
,
0000
0000
1000
0001
1000
0001
0100
0010
0100
0010
1000
0001
1000
0001
0200
0000
,
0000
0000
0000
0000
0000
0001
0010
1300
,
0011
0011
0000
0001
1100
1100
0000
1001
,
0010
0100
0010
1001
0010
0001
0010
1100
,
0001
0010
0001
1100
0100
1000
0100
0012
,
0000
0000
0000
2000
0000
0000
0000
0020
,
0000
0000
0000
3203
0000
0000
0000
0032
,
0000
0000
0000
0000
0000
0000
0300
0000
0000
0000
1000
0000
0010
0000
1003
0100
,
1000
0100
0001
0010
0001
0010
0001
1000
0001
1000
0010
0100
0010
0100
0001
0010
,
0001
0010
1000
0001
1000
0001
0100
0010
0100
0010
0001
0100
0001
0100
0010
1000
,
0010
1000
0001
0100
0001
0100
0001
0010
0001
0010
1000
0100
1000
0100
0010
0001
,
0010
0001
0100
0010
0100
0010
1000
0100
1000
0100
0010
0100
0010
0100
0001
0010
,
0001
0010
0100
0010
0100
0010
0001
0100
0001
0100
1000
0010
1000
0010
0100
1000
,
0100
1000
0001
0010
0001
0010
0100
0001
0100
0001
1000
0010
1000
0010
0100
0001
,
0100
0001
0010
0100
0010
0100
1000
0100
1000
0100
0010
0001
0010
0001
1000
0001
,
1000
0001
1000
0010
1000
0010
0100
0001
0100
0001
0010
0100
0010
0100
2000
0000
,
0000
0000
0000
0002
0000
3200
0000
0020
,
0000
0003
0000
2300
0000
0032
0000
0020
,
0000
3000
0000
2003
0000
0032
0000
0200
,
0000
0000
3000
0000
0000
0000
0013
0000
0000
0000
1300
0000
0000
0000
1000
0001
,
1000
0001
1000
0010
1000
0010
0001
0100
0001
0100
0010
0100
0010
0100
0001
1000
,
0001
1000
0001
0010
0001
0010
0100
0001
0100
0001
1000
0100
1000
0100
0010
1000
,
0010
1000
0001
0010
0001
0010
0100
0001
0100
0001
0100
1000
0100
1000
0001
0010
,
0001
0010
0100
1000
0100
1000
0001
1000
0001
1000
0010
0100
0010
0100
0001
1000
,
0001
1000
0001
0010
0001
0010
1000
0001
1000
0001
0100
0010
0100
0010
0001
1000
,
0001
1000
0010
0100
0010
0100
0001
0010
0001
0010
0100
0010
0100
1000
0100
1000
,
0001
0010
0001
0010
1000
0001
1000
0001
0010
1000
0010
1000
0001
0100
0001
0100
,
0010
0100
0010
1000
0001
1000
0001
0100
1000
0100
1000
0100
0001
0100
0020
0000
,
0000
0000
0000
0200
0000
0032
0000
2000
,
0000
0300
0000
0023
0000
3200
0000
2000
,
0000
0030
0000
0320
0000
3200
0000
0002
,
0000
0030
0000
1300
0000
0013
0000
1010
,
0110
1010
0110
0101
0110
0101
0110
1001
,
0101
1001
0011
1001
1100
1001
0110
1001
,
0110
0011
1001
0110
1100
1001
0000
2002
,
0000
0000
0000
0000
,
0000
0000
0000
3003
1100
0011
1100
0011
1100
0011
1100
0011
1100
0011
1100
0011
,
1100
0011
1100
0011
1100
0011
1100
0011
1000
0100
0010
0001
1000
0100
0010
0100
,
1000
0001
0010
0100
1000
0100
0010
0001
0010
0100
0010
0001
1000
0100
0010
1000
,
0001
0010
0100
1000
0100
0001
0010
0100
1000
0001
0010
0100
1000
0010
0100
0001
,
1000
0010
0100
0001
1000
0001
1000
0010
0100
0010
0100
0001
0010
0100
0010
0001
,
1000
0100
1000
0010
0100
0001
0010
0100
0001
1000
0001
1000
0010
0001
0100
1000
,
0001
0010
0100
0010
0001
1000
0100
0001
0010
1000
0100
0001
0100
1000
0010
0001
,
0100
0010
0001
0010
0100
0001
1000
0100
1000
0010
0100
0001
0010
0100
0001
1000
,
0010
1000
0010
0100
0001
0100
0001
1000
0010
0001
1000
0100
0001
0010
0100
0001
,
0010
1000
0100
1000
0001
0010
0100
0001
0100
0010
1000
0100
0010
1000
0001
0010
,
0100
0010
0001
0010
0100
0001
1000
0100
1000
0100
0001
0010
0100
0001
1000
0100
,
0010
1000
0001
0010
0100
1000
0100
0010
0001
0000
0100
0000
0001
0000
0010
0000
,
1000
0001
0100
0010
1000
0000
0000
0000
,
0001
0000
0000
0000
1100
0011
1100
0011
1100
0000
0010
0000
0001
0000
0010
0000
,
0100
1000
0010
0001
0100
0000
0000
0000
,
1000
0000
0000
0000
0110
1001
0110
1001
0110
1000
0001
0010
1000
0100
0001
0010
,
0100
1000
0001
0010
0100
0010
0001
1000
0001
1000
0100
0010
1000
0001
0010
0100
,
0010
0001
1000
0100
0010
0001
0010
0100
1000
0000
0100
0000
0001
0000
1000
0000
,
0001
1000
0010
0100
0001
0000
0000
0000
,
1000
0000
0000
0000
0011
1100
0011
1100
0011
0000
1000
0000
0100
0000
0001
0000
,
0010
0001
0100
1000
0010
0000
0000
0000
,
0001
0000
0000
0000
0110
1001
0110
1001
0110
0001
1000
0100
0001
0010
1000
0100
,
0010
0001
1000
0100
0010
0100
1000
0001
1000
0001
0010
0100
0001
1000
0100
0010
,
0100
1000
0001
0010
0100
1000
0100
0010
0001
0000
0000
0000
1000
0000
0000
0000
,
0100
0100
0010
0010
1000
1000
0001
0001
0100
0000
0000
0000
1000
0000
0000
0000
,
0001
0001
1000
1000
0100
0100
0010
0010
0001
0000
0000
0000
0000
0000
0000
0000
,
0000
0000
0000
0000
0000
0000
0000
0000
1100
0011
1100
0011
1100
0000
0000
0000
,
1001
0110
1001
0110
1001
0000
0000
0000
1010
0101
1010
0101
1010
0000
0000
0000
,
1111
0000
2000
0000
,
0020
3002
2000
0030
,
0003
0000
0000
0000
3000
0000
0001
0000
1000
0100
0010
0001
0010
0100
1000
0100
,
0010
0001
0010
0100
1000
0100
0010
0001
2000
0000
0000
0000
0002
0000
0000
0000
,
0010
0000
0100
0000
3010
0000
0100
0000
1003
0100
0010
0001
0010
0100
1000
0100
,
0010
0001
0010
0100
1000
0100
0010
0001
2000
0000
0000
0000
0002
0000
0000
0000
,
0010
0000
0100
0000
3010
0000
0100
0000
1113
0000
0000
0111
0000
0000
1110
0000
,
0000
0111
0000
0000
2001
0000
0010
0000
0001
0000
0100
0000
0012
0000
0100
0000
,
3010
1000
0100
1000
0013
0200
2000
0010
,
0001
0020
0302
0100
3100
1000
0100
1000
,
0133
0000
1000
0000
0001
0000
0000
0000
0000
0000
0010
0001
0020
0000
0000
0000
,
0000
0000
0100
1000
0200
0000
0000
0000
1001
0000
0000
0000
1001
0000
0000
0000
,
1001
0000
0000
0000
1331
0000
0000
0000
0000
0000
1000
0100
2000
0000
0000
0000
,
0000
0000
0001
0010
0002
0000
0000
0000
0110
0000
0000
0000
0110
0000
0000
0000
,
0010
0000
0010
0000
3113
0000
0110
0000
0110
0000
0110
0000
1000
0100
0010
0001
,
0010
0000
0000
0000
0100
0000
0000
0000
1000
0000
0000
0000
0001
0000
0000
0000
1000
0000
0000
0000
0000
0000
0000
0000
0000
0000
0000
0000
0000
0000
0000
0000
1000
0100
0010
0000
0000
0000
0000
0000
0000
0000
0000
0000
1000
0100
0010
0000
0000
0000
0000
0000
0000
0000
0000
0000
1000
0000
0000
0000
0001
0000
0000
0000
,
1000
0001
0100
0000
1000
0100
0001
0010
1000
0100
0001
0010
1000
0100
0010
0001
,
1000
0000
0000
0000
0001
0000
0000
0000
1000
0000
0000
0000
0000
0000
0000
0000
0000
0000
0000
0000
0000
0000
0000
0000
0001
0010
0100
0000
0000
0000
0000
0000
0000
0000
0000
0000
0001
0010
0100
0000
0000
0000
0000
0000
0000
0000
0000
0000
1000
0000
0000
0000
0100
0000
0000
0000
1000
0000
0000
0000
0100
0000
0000
0000
,
1000
0011
0011
0000
0001
1100
1100
0000
,
1100
0110
0011
0110
1100
0110
0011
0110
,
1100
0110
0101
0011
0110
1010
0101
0110
,
2000
0200
3002
0320
,
0203
2030
0320
3002
,
2030
0023
3200
0032
,
2300
0000
0000
0000
0203
0000
0000
0000
3002
0000
0000
0000
0310
0100
1000
0100
,
0013
1000
0100
0010
0001
0010
0100
0010
0001
0010
0100
1000
0100
0010
0100
1000
,
0100
0010
0001
0010
0100
0010
0001
0010
0100
1000
0100
0010
0001
0010
0100
1000
,
0011
0110
1100
0110
0011
0110
1001
1010
,
0101
0000
0000
0000
0000
0000
0000
0000
0000
0000
0000
0000
0000
0000
0000
0000
0001
0010
0100
0000
0000
0000
0000
0000
0000
0000
0000
0000
1000
0100
0010
0000
0000
0000
0000
0000
0000
0000
0000
0000
0001
0000
0000
0000
0010
0000
0000
0000
0100
0000
0000
0000
1000
0000
0000
0000
0002
0000
0000
0000
1000
0000
0000
0000
,
0100
0010
1000
0100
0010
0100
1000
0000
0000
0000
0000
0000
0000
0000
0000
0000
,
0000
0000
0000
0000
0000
0003
0000
0000
;

//---------------dance-single - ----------------
#NOTES:
     dance-single:
     :
     Medium:
     12:
     1.000,1.000,0.842,0.563,0.502,902.000,136.000,91.000,0.000,63.000:
0000
0000
0000
0000
,
2000
0000
0000
0000
0000
0000
0000
0000
0000
0000
0000
0000
0001
0010
0001
0010
,
3001
0000
0000
1100
0000
0000
0110
0000
0000
1100
0000
0000
0002
0000
0000
0000
,
0000
0000
0000
0000
0000
0000
0000
0000
1000
0100
1000
0100
1003
0000
0000
0011
,
0000
0000
0110
0000
0000
0011
0000
0000
1000
0000
0001
0000
0100
0000
0010
0000
,
1000
0001
0100
0010
1000
0001
0010
0100
,
0010
0001
1000
0100
1000
0001
0010
0100
,
1000
0100
0010
1000
0001
0010
0100
1000
,
0100
0010
0001
1000
0100
0010
0100
1000
,
0001
0010
0001
0100
0010
1000
0100
1000
,
0001
0010
0100
0010
0001
0010
0100
0001
,
0010
0001
1000
0100
0001
1000
0100
0010
,
0001
0010
0001
0100
1000
0100
0010
0001
,
0200
0000
0000
0000
0000
0000
0000
0300
0000
0001
0000
0010
0000
0100
0000
1000
,
0000
0200
0000
0000
0000
0000
0000
0000
0300
0000
0001
0000
0010
0000
0200
0000
,
0000
0000
0000
1000
0000
1300
0000
0100
0000
0010
0000
0001
0000
0000
0000
0100
,
0001
0000
0100
0001
0000
1000
0001
0010
0100
1000
0000
0100
0000
0010
0000
0001
,
0000
0020
0000
0000
0000
0000
0000
0000
0030
0000
1000
0000
0100
0000
0010
0000
,
0001
0000
0020
0000
0000
0000
0000
0000
0000
0030
0000
1000
0000
0100
0000
0020
,
0000
0000
0001
0031
0010
0100
1000
0000
,
0001
1000
0000
0001
1000
0000
0001
1000
0100
0010
0001
0000
1000
0000
0001
0000
,
1000
0100
0010
1000
0010
0100
0010
0001
,
0010
1000
0100
0010
1000
0001
0010
0100
,
0010
0000
0001
0000
1000
0000
0001
0000
0010
0000
1000
0000
0001
0100
0000
0010
,
0100
0000
0010
0100
0000
0100
0001
0000
1000
0001
0000
0100
0001
0000
0010
0001
,
0000
0001
2000
0000
0000
0000
0000
0000
0000
0000
3002
0000
0000
0000
0200
0000
,
0000
2000
0000
0003
0000
0300
0000
3000
,
0001
0010
0100
1000
0100
0010
0001
0010
,
0100
2000
0000
0002
0000
0000
0000
3000
,
0000
0103
0010
0001
0010
0100
1000
0100
,
0010
0002
0000
2000
0000
0000
0000
0003
,
0000
0000
3111
0000
0000
1110
0000
0000
0111
0000
0000
1110
0000
0000
1000
0000
,
0100
0001
0010
1000
0100
0001
0010
2000
,
0000
0000
0010
0002
0000
3000
0100
2000
,
0000
0003
0000
0000
0000
3200
0000
2000
,
0000
0000
0000
0002
0000
0000
0000
3323
,
0000
0000
0000
0000
0000
0002
0000
2030
,
0000
0000
0000
0020
0000
0000
0000
3233
,
0000
0000
0000
0000
0000
1000
0010
0301
,
0010
1000
0010
0001
1000
0100
0001
2000
,
0000
0000
0000
0000
0010
3001
0010
0001
,
0000
0000
1000
0001
1000
0001
0100
0010
0100
0010
1000
0001
1000
0001
0200
0000
,
0000
0000
0000
0000
0000
0001
0010
1300
,
0011
0011
0000
0001
1100
1100
0000
1001
,
0010
0100
0010
1001
0010
0001
0010
1100
,
0001
0010
0001
1100
0100
1000
0100
0012
,
0000
0000
0000
2000
0000
0000
0000
0020
,
0000
0000
0000
3203
0000
0000
0000
0032
,
0000
0000
0000
0300
0000
1000
0010
1003
,
0100
0010
0001
0010
1000
0100
0010
0100
,
1000
0001
0100
0010
0001
0100
0010
1000
,
0001
0010
0001
1000
0100
1000
0100
0010
,
0001
0010
0100
1000
0010
0100
0010
0001
,
0010
0100
0010
0100
1000
0010
0100
0001
,
0010
0100
0010
0001
1000
0100
0010
0001
,
1000
0100
0010
0001
0010
0100
0001
0100
,
1000
0001
0010
0100
0001
0010
0100
2000
,
0000
0000
0000
0002
0000
3200
0000
0020
,
0000
0003
0000
2300
0000
0032
0000
0020
,
0000
3000
0000
2003
0000
0032
0000
0200
,
0000
3000
0000
0013
0000
1300
0000
1100
,
0001
1000
0100
0011
1000
0110
0001
1100
,
0010
0100
1000
0101
0001
1010
0100
0101
,
0010
1000
0001
1010
0100
0110
1000
0101
,
0010
1000
0001
0101
0010
0110
0001
1010
,
0001
0100
1000
0011
1000
0110
0001
0110
,
1000
0001
0100
1010
0010
0101
0010
1001
,
0100
1000
0010
0101
0010
0101
1000
1010
,
0001
0010
0100
1001
0010
1100
0001
0020
,
0000
0000
0000
0200
0000
0032
0000
2000
,
0000
0300
0000
0023
0000
3200
0000
2000
,
0000
0030
0000
0320
0000
3200
0000
0002
,
0000
0030
0000
1300
0000
0013
0000
1001
,
0100
1001
0010
1001
0100
1001
0010
1100
,
0001
0011
1000
1100
0001
0011
1000
0110
,
0001
0110
1001
1010
0101
0110
0000
2002
,
0000
0000
0000
0000
,
0000
0000
0000
3003
1000
0001
1000
0001
1000
0001
1000
0001
1000
0001
1000
0001
,
1000
0001
1000
0001
1000
0001
1000
0001
1000
0000
0100
0000
0001
0000
1000
0000
,
0011
0100
1010
0001
1001
0100
1000
0001
,
1010
0100
0011
0100
0011
1000
0001
0010
,
1100
0010
0011
1000
0101
0010
1000
0001
,
1010
0001
0110
1000
0011
0100
0010
0001
,
1100
0010
0101
1000
0011
0100
0001
1000
,
0011
0100
1001
0010
1100
0001
0010
0100
,
0110
0001
1010
0100
0011
1000
0010
0100
,
0011
0010
1100
0010
0101
1000
0100
0010
,
1001
0001
0110
0100
1001
0100
1000
0001
,
0110
0001
1010
0100
1001
0100
0001
0010
,
1000
0001
0100
0010
1000
0000
0000
0000
,
0001
0000
0000
0000
1100
0011
1100
0011
1100
0000
0010
0000
0001
0000
0010
0000
,
0100
1000
0010
0001
0100
0000
0000
0000
,
1000
0000
0000
0000
0110
1001
0110
1001
0110
0000
0001
0000
0010
0000
0001
0000
,
0110
1000
0101
1000
0011
0010
0100
0001
,
1010
0100
1010
1000
0011
0100
0001
1000
,
0001
1000
0010
0100
0001
0000
0000
0000
,
1000
0000
0000
0000
0011
1100
0011
1100
0011
0000
1000
0000
0100
0000
0001
0000
,
0010
0001
0100
1000
0010
0000
0000
0000
,
0001
0000
0000
0000
0110
1001
0110
1001
0110
0000
1000
0100
0010
0001
0010
0100
,
1000
0100
0010
0001
0010
0100
1000
0100
0010
0001
0010
0100
1000
0100
0010
0001
,
0010
0100
1000
0100
0010
0001
0010
0100
1000
0000
0000
0000
0001
0000
0000
0000
,
0001
0010
0100
1000
0001
0000
1000
0000
,
0001
0010
0100
1000
0001
0000
0000
0000
,
0000
0000
1110
0000
,
0111
0000
1111
0000
,
1000
0100
0010
0001
0000
0000
0000
0000
0000
0000
0000
0000
0000
0000
0000
0000
2000
0000
0000
0000
0000
0000
0000
0000
0000
0000
0000
0000
0000
0000
0000
0000
,
0020
3002
2000
0030
,
0003
0000
0000
0000
3000
0000
0001
0000
1000
0100
0010
0001
0010
0100
1000
0100
,
0010
0001
0010
0100
1000
0100
0010
0001
2000
0000
0000
0000
0002
0000
0000
0000
,
0000
0000
0000
0000
3000
0000
0000
0000
1003
0100
0010
0001
0010
0100
1000
0100
,
0010
0001
0010
0100
1000
0100
0010
0001
2000
0000
0000
0000
0002
0000
0000
0000
,
0000
0000
0000
0000
3000
0000
0000
0000
1113
0000
0000
0111
0000
0000
1110
0000
,
0000
0111
0000
0000
2000
0000
0000
0000
0000
0000
0000
0000
0002
0000
0000
0000
,
3000
0000
0020
0000
0003
0200
2000
0000
,
0030
0020
0302
0000
3000
0000
0000
0000
,
0133
0000
0000
0000
0001
0000
0000
0000
0000
0000
0010
0001
0020
0000
0000
0000
,
0000
0000
0100
1000
0200
0000
0000
0000
0000
0000
0000
0000
0000
0000
0000
0000
,
1001
0000
0000
0000
1331
0000
0000
0000
0000
0000
1000
0100
2000
0000
0000
0000
,
0000
0000
0001
0010
0002
0000
0000
0000
0000
0000
0000
0000
0000
0000
0000
0000
,
0010
0000
0010
0000
3103
0000
0100
0000
0100
0000
0100
0000
1000
0100
0010
0001
,
0010
0000
0000
0000
0100
0000
0000
0000
1000
0000
0000
0000
0001
0000
0000
0000
1000
0000
0000
0000
0000
0000
0000
0000
0000
0000
0000
0000
0000
0000
0000
0000
1000
0100
0010
0000
0000
0000
0000
0000
0000
0000
0000
0000
1000
0100
0010
0000
0000
0000
0000
0000
0000
0000
0000
0000
1000
0000
0000
0000
0001
0000
0000
0000
,
1000
0001
0100
0000
1000
0100
0001
0010
1000
0100
0001
0010
1000
0100
0010
0001
,
1000
0000
0000
0000
0001
0000
0000
0000
1000
0000
0000
0000
0000
0000
0000
0000
0000
0000
0000
0000
0000
0000
0000
0000
0001
0010
0100
0000
0000
0000
0000
0000
0000
0000
0000
0000
0001
0010
0100
0000
0000
0000
0000
0000
0000
0000
0000
0000
1000
0000
0000
0000
0100
0000
0000
0000
1000
0000
0000
0000
0100
0000
0000
0000
,
1000
0011
0011
0000
0001
1100
1100
0000
,
1000
0100
0010
0100
1000
0001
0010
0100
,
0010
0001
1000
0100
0010
0001
0010
0100
,
2000
0200
3002
0320
,
0203
2030
0320
3002
,
2030
0023
3200
0032
,
2300
0000
0000
0000
0203
0000
0000
0000
3002
0000
0000
0000
0310
0100
1000
0100
,
0013
1000
0100
0010
0001
0010
0100
1000
0100
0010
0001
0010
0100
1000
0100
0010
,
0001
0010
0100
1000
0100
0010
0001
0010
0100
1000
0100
0010
0001
0010
0100
1000
,
0011
0110
1100
0110
0011
0110
1001
1010
,
0101
0000
0000
0000
0000
0000
0000
0000
0000
0000
0000
0000
0000
0000
0000
0000
0001
0010
0100
0000
0000
0000
0000
0000
0000
0000
0000
0000
1000
0100
0010
0000
0000
0000
0000
0000
0000
0000
0000
0000
0001
0000
0000
0000
0010
0000
0000
0000
0100
0000
0000
0000
1000
0000
0000
0000
0002
0000
0000
0000
1000
0000
0000
0000
,
0100
0010
1000
0100
0010
0100
1000
0000
0000
0000
0000
0000
0000
0000
0000
0000
,
0000
0000
0000
0000
0000
0003
0000
0000
;

//---------------dance-single - ----------------
#NOTES:
     dance-single:
     :
     Easy:
     9:
     0.837,1.000,1.000,0.483,0.282,659.000,199.000,78.000,0.000,44.000:
0000
0000
0000
0000
,
1000
0000
0000
0000
0000
0000
0000
0000
0000
0000
0000
0000
0001
0010
0001
0010
,
0001
0000
0000
1100
0000
0000
0110
0000
0000
1100
0000
0000
0001
0000
0000
0000
,
0000
0000
0000
0000
0000
0000
0000
0000
1000
0100
1000
0100
1000
0000
0000
0011
,
0000
0000
0110
0000
0000
0011
0000
0000
1010
0000
0000
0000
1100
0000
0000
0000
,
0101
0011
0110
1001
,
0110
0011
1100
0110
,
1010
0101
0110
0011
,
1100
1001
0110
0101
,
0110
1010
1100
0101
,
0011
0110
0011
1010
,
0101
0110
0110
1100
,
0101
0000
0011
0100
0001
0010
0100
1000
,
0200
0000
0000
0000
0000
0000
0000
0300
0000
0001
0000
0010
0000
0100
0000
1000
,
0000
0200
0000
0000
0000
0000
0000
0000
0300
0000
0001
0000
0010
0000
0200
0000
,
0000
0000
0000
1000
0000
1300
0000
0100
0000
0010
0000
0001
0000
0000
0000
0101
,
0000
0000
0101
0000
0000
1000
0001
0010
0100
1000
0000
0100
0000
0010
0000
0001
,
0000
0020
0000
0000
0000
0000
0000
0000
0030
0000
1000
0000
0100
0000
0010
0000
,
0001
0000
0020
0000
0000
0000
0000
0000
0000
0030
0000
1000
0000
0100
0000
0020
,
0000
0000
0001
0031
0010
0100
1000
0000
,
1001
0000
0000
1001
0000
0000
0001
1000
0100
0010
0001
0000
0000
0000
1010
0000
,
0000
0101
0000
0011
0000
0101
0000
0110
,
0000
1010
0000
0110
0000
1001
0000
0110
,
0000
0000
0101
0000
0000
0000
1010
0000
0000
0000
1000
0000
0101
0000
0000
0110
,
0000
0000
0110
0000
0000
0101
0000
0000
1001
0000
0000
0101
0000
0000
0011
0000
,
0000
0001
2000
0000
0000
0000
0000
0000
0000
0000
3002
0000
0000
0000
0200
0000
,
0000
2000
0000
0003
0000
0300
0000
3000
,
0001
0010
0100
1000
0100
0010
0001
0010
,
0100
2000
0000
0002
0000
0000
0000
3000
,
0000
0103
0010
0001
0010
0100
1000
0100
,
0010
0002
0000
2000
0000
0000
0000
0003
,
0000
0000
3111
0000
0000
1110
0000
0000
0111
0000
0000
1110
0000
0000
1000
0000
,
0000
0000
0000
0001
0000
0000
0000
2000
,
0000
0000
0010
0002
0000
3000
0100
2000
,
0000
0003
0000
0000
0000
3200
0000
2000
,
0000
0000
0000
0002
0000
0000
0000
3323
,
0000
0000
0000
0000
0000
0002
0000
2030
,
0000
0000
0000
0020
0000
0000
0000
3233
,
0000
0000
0000
0000
0000
1000
0010
0301
,
0010
1000
0010
0001
1000
0100
0001
2000
,
0000
0000
0000
0000
0010
3001
0010
0001
,
0000
1000
0001
1000
0010
0100
0010
0200
,
0000
0000
0000
0000
0000
0001
0010
1300
,
0011
0011
0000
0001
1100
1100
0000
1001
,
0010
0100
0010
1001
0010
0001
0010
1100
,
0001
0010
0001
1100
0100
1000
0100
0012
,
0000
0000
0000
2000
0000
0000
0000
0020
,
0000
0000
0000
3203
0000
0000
0000
0032
,
0000
0000
0000
0300
0000
1000
0010
1003
,
0000
0110
0000
0011
0000
1001
0000
1010
,
0000
0011
0000
0011
0000
0110
0000
1001
,
0000
1010
0000
0101
0000
0011
0000
0101
,
0000
1010
0000
0110
0000
1010
0000
0110
,
0000
0011
0000
1001
0000
1100
0000
0110
,
0000
0101
0000
1010
0000
0110
0000
1010
,
0000
0101
0000
0110
0000
0101
0000
0110
,
0000
1010
0000
0101
0000
0011
0000
2000
,
0000
0000
0000
0002
0000
3200
0000
0020
,
0000
0003
0000
2300
0000
0032
0000
0020
,
0000
3000
0000
2003
0000
0032
0000
0200
,
0000
3000
0000
0013
0000
1300
0000
1100
,
0000
0000
0000
0011
0000
0110
0000
1100
,
0000
0000
0000
0101
0000
1010
0000
0101
,
0000
0000
0000
1010
0000
0110
0000
0101
,
0000
0000
0000
0101
0000
0110
0000
1010
,
0000
0000
0000
0011
0000
0110
0000
0110
,
0000
0000
0000
1010
0000
0101
0000
1001
,
0000
0000
0000
0101
0000
0101
0000
1010
,
0000
0000
0000
1001
0000
1100
0000
0020
,
0000
0000
0000
0200
0000
0032
0000
2000
,
0000
0300
0000
0023
0000
3200
0000
2000
,
0000
0030
0000
0320
0000
3200
0000
0002
,
0000
0030
0000
1300
0000
0013
0000
1001
,
0100
1001
0010
1001
0100
1001
0010
1100
,
0001
0011
1000
1100
0001
0011
1000
0110
,
0001
0110
1001
1010
0101
0110
0000
2002
,
0000
0000
0000
0000
,
0000
0000
0000
3003
1000
0001
1000
0001
1000
0001
1000
0001
1000
0001
1000
0001
,
1000
0001
1000
0001
1000
0001
1000
0001
1000
0000
0000
0000
1000
0000
0100
0000
,
0011
0000
1010
0000
1001
0000
1000
0001
,
1010
0000
0011
0000
0101
0000
0001
0010
,
1100
0000
0011
0000
0101
0000
1000
0001
,
1010
0000
0110
0000
0011
0000
0010
0001
,
1100
0000
0101
0000
0011
0000
0001
1000
,
0011
0000
1001
0000
1100
0000
0010
0100
,
0110
0000
1010
0000
0011
0000
0010
0100
,
0011
0000
1100
0000
0101
0000
0100
0010
,
1001
0000
0110
0000
1001
0000
1000
0001
,
0110
0000
1010
0000
1001
0000
0001
0010
,
1000
0001
0100
0010
1000
0000
0000
0000
,
0001
0000
0000
0000
1000
0001
1000
0001
1000
0000
0010
0000
0001
0000
0010
0000
,
0100
1000
0010
0001
0100
0000
0000
0000
,
1000
0000
0000
0000
0100
0010
0100
0010
0100
0000
0000
0000
0010
0000
0001
0000
,
0110
0000
0101
0000
0011
0000
0100
0001
,
1010
0000
1010
0000
0011
0000
0001
1000
,
0001
1000
0010
0100
0001
0000
0000
0000
,
1000
0000
0000
0000
0001
1000
0001
1000
0001
0000
1000
0000
0100
0000
0001
0000
,
0010
0001
0100
1000
0010
0000
0000
0000
,
0001
0000
0000
0000
0100
0010
0100
0010
0100
0000
0001
0000
0010
0000
0100
0000
,
1000
0100
0010
0001
0010
0100
1000
0100
,
0010
0001
0010
0100
1000
0000
0001
0000
,
0001
0010
0100
1000
0001
0000
1000
0000
,
0001
0010
0100
1000
0001
0000
0000
0000
,
0000
0000
1100
0000
,
0011
0000
1001
0000
,
1111
0000
2000
0000
,
0020
3002
2000
0030
,
0003
0000
3000
0001
1000
0100
0010
0001
,
1000
0100
0010
0001
2000
0000
0002
0000
,
0000
0000
3000
0000
1003
0100
0010
0001
,
1000
0100
0010
0001
2000
0000
0002
0000
,
0000
0000
0000
0000
3000
0000
0000
0000
1113
0000
0000
0111
0000
0000
1110
0000
,
0000
0111
0000
0000
2000
0000
0000
0000
0000
0000
0000
0000
0002
0000
0000
0000
,
3000
0000
0010
0000
0003
0100
1000
0000
,
0000
0020
0002
0000
0000
0000
0000
0000
,
0133
0000
0000
0000
0001
0000
0000
0000
0000
0000
0010
0001
0020
0000
0000
0000
,
0000
0000
0100
1000
0200
0000
0000
0000
0000
0000
0000
0000
0000
0000
0000
0000
,
1001
0000
0000
0000
1331
0000
0000
0000
0000
0000
1000
0100
2000
0000
0000
0000
,
0000
0000
0001
0010
0002
0000
0000
0000
0000
0000
0000
0000
0000
0000
0000
0000
,
0010
0010
3103
0100
0100
0100
1000
0100
,
0010
0000
0001
0000
1000
0000
0000
0000
1010
0000
0000
1010
0000
0000
1000
0001
,
1000
0001
0100
0000
0001
0000
0010
0000
0100
0000
1000
0000
0001
0000
0010
0000
,
0100
0000
1000
0000
0000
0000
0101
0000
0000
0101
0000
0000
1000
0100
1000
0100
,
1000
0011
0011
0000
0001
1100
1100
0000
,
1000
0100
0010
0100
1000
0001
0010
0100
,
0010
0001
1000
0100
0010
0001
0010
0100
,
2000
0000
3002
0000
,
0203
0000
0320
0000
,
2030
0000
3200
0000
,
0320
0000
0000
0000
0000
0000
1000
0100
,
0031
1000
0100
0010
0001
0010
0100
1000
0100
0010
0001
0010
0100
1000
0100
0010
,
0001
0010
0100
1000
0100
0010
0001
0010
0100
1000
0100
0010
0001
0010
0100
1000
,
0001
0010
0100
1000
0100
0010
0001
0010
,
0100
0000
0000
0000
0101
0000
0000
1010
0000
0000
0001
0010
0100
1000
0002
1000
,
0100
0010
1000
0100
0010
0100
1000
0000
0000
0000
0000
0000
0000
0000
0000
0000
,
0000
0000
0000
0000
0000
0003
0000
0000
;
